玉置成実 – NT GUNDAM COVER

玉置成実 – NT GUNDAM COVER
NT GUNDAM COVER 2
014年6月25日(水)発売
【品番】TECI-1407
【価格】定価:¥2,500+税
【仕様】アルバムCD

本人自初一开始喜欢的歌手,因为GUNDAM所以喜欢,因为NAMI所以日音,因为梶浦所以钢琴。

    不要和我说现场唱得怎么样录音室都是做出来的,不要和我说FLOP这个单词不要跟我提销量,不要和我说盗版REASON中国天天见不要说你就知道这一首,统统给我关掉。这些,我根本不在乎,个人人生第一和第二张专辑(第二张是单曲)就来自于NAMI,发票上的字都已经淡得完全不见踪影了我还放在抽屉里珍藏着(日本唱片店发票的纸质真得很好!至今光滑表面很有韧性..)。个人人生第一首日音的MP3就是多年前拿着的K750C,由曾经的初中好朋友用蓝牙传给我的(朋友是什么。有的朋友过去了就是过去了,有的请你们珍惜)。所以呢,NAMI有着纪念意义可能超过她带来的音乐价值,前者是无与伦比的,但后者由于是unique的,因而也是珍视着的至宝。

    此次收录翻唱各纪元高达主题曲,有Z有W有08有SEED,夫复何求。最后竟然还有晓之车这种国人皆知的老神曲,真的是非常非常期待其质量!另外请问,我可以来参与录制晓之车的钢琴伴奏么:-D

収録曲
1. めぐりあい(機動戦士ガンダムⅢ めぐりあい宇宙編)(「机动战士高达III 相逢宇宙篇」主题歌)
2. 嵐の中で輝いて (機動戦士ガンダム第08MS小隊)(「机动战士高达 第08MS小队」主题歌)
3. MEN OF DESTINY (機動戦士ガンダム0083 STARDUST MEMORY)(「机动战士高达0083 星尘的回忆」主题歌)
4. Z・刻をこえて(機動戦士Zガンダム)(「机动战士Z高达」主题歌)
5. サイレントヴォイス(機動戦士ガンダムZZ)(「机动战士ZZ高达」主题歌)
6. ETERNAL WIND~ほほえみは光る風の中~(機動戦士ガンダムF91)(「机动战士高达F91」主题歌)
7. 海よりも深く(機動武闘伝Gガンダム)(「机动武斗传G高达」主题歌)
8. JUST COMMUNICATION(新機動戦記ガンダムW)(「新机动战记高达W」主题歌)
9. DREAMS(機動新世紀ガンダムX)(「机动新世纪高达X」主题歌)
10. 暁の車 (機動戦士ガンダムSEED)(「机动战士高达SEED」插曲
11. Believe(機動戦士ガンダムSEED)(「机动战士高达SEED」主题歌)

MAC最好的音乐播放器 VOX

VOX音乐播放器

VOX音乐播放器

*文章更新时为VOX最新版本样式,但是至2014/3/1,官网已更新,软件也已更新,变得更好了,自行下载!

不能根据题目而断章取义啊同学们,毕竟要说一样东西是最好的,那也得限定一个领域,即使是音乐播放器,也会根据不同的人不同的使用习惯而有所不同,所以我们来细看下VOX。(全文棕红色字体为官方网站链接。)

正版狂热爱好者从来不单独获取盗版资源者强烈建议绕道。

首先我们简单地把音乐播放器分为在线式(电台式已忽略,JingMusic推荐给电台爱好者)和本地式(虽然随着时间的推移这两者正有相互融合之意,不错对于在线音频质量不满的人只要还是以论坛或者资源站下载为主),一般来说,本地的播放器是为了强调有支持更多的格式,对资源更好的管理,更简约的界面以及更好的音质,而在线呢,是为了图个方便易于搜索,资源获取便捷且量大,字幕获取方便,在线内容有经过整理,在线试听以及云同步。所以说各有所长不分伯仲,而融合的产品虽然是大势所趋,但也只是大势,仍不能满足少部分对本地管理,音质需求量大之人的要求。综上呢,我们一般都会整备两个音乐播放器。

在线做的好的,要是放几年前只会想到酷狗,而如今个人还是偏爱虾米和新兴的百度音乐播放器(后者收了千千后结合自己的在线资源,崛起只是时间问题),两者都有着相对庞大的正版音乐资料库而且整理得井井有条,而随着收费时代的到来,目前对VIP需求不是很高的百度音乐能够更好地提供服务,而虾米从最开始其实就有所谓的红包,虾币,但是看在资料库和精选集两者都是很不错的情况下也是可以忽略那些的。而MAC上搜索音乐最好的神器无疑是DynamicLyrics作者MartianZ!的作品:MusicSeekers.好就好在它免费而且基本没什么大问题而且好用-_-,很可惜由于各种原因别人不做了。之后有耳闻过什么’音乐汇’,几乎有名的在线都搜得到,可惜没用过因为不喜欢太乱。而个人曾经最喜欢的无疑是IYY(IYY官网),在线搜索无损,然后我发现对于每个月不缺绿钻钱的人来说,为什么不买绿钻呢?就觉得QQ音乐播放器+绿钻,虾歌播放器+虾米会员,百度音乐播放器+百度音乐vip,都是神搭配啊!对于仅仅是对不偏门的歌有无损要求的,这才是最佳搭配吧-_-。

然后回到重点的本地,首先排除掉VLC这种不专一的,再排除掉Audirvana Plus(74刀)这种昂贵的,iTunes的确界面美观,音乐管理出众,配合上面说到的搜索,下载,民心所向。但是我们不能否认它太臃肿,而且它不仅仅是个音乐播放器,对于大部分是听音乐使用的人来说太过繁杂,即使你有mini窗口也掩饰不了你对flac,ape有多么不友好,最重要的,iTunes木有歌词。之前有提到过的DL软件,出错率太大了,对于很多国外歌曲几乎不可用。所以iTunes并不是首选。我喜欢简简单单,该干嘛就干嘛的播放器,那就是VOX(VOX官网)。我相信如果你去一次官网,然后看一次软件安装后的WELCOME(文末有演示链接),你就再也不会用其它的音乐软件了,因为我们无法想象能设计出如此绝佳界面的团队,有什么理由不强大。而对于功能,个人最需要的有以下几点:

一是系统顶部菜单栏能够有音乐控制的按钮,二是对无损支持友好,三是支持歌词,四是简约但功能强大,五是支持Last.fm

让人高兴的是VOX并不支持歌词但是其它都做得相当好,特别是对常用无损的支持友好以及强大设计的界面,让人爱不释手。第一款没有歌词不是硬伤的播放器问世,而且有着前瞻性的添加了multi-control和airplay的支持。要说本地功能还不够强大,要想和foobar2k比?那去看下官网吧,播放队列,ID3编辑,移动版VOX等等等新功能都等着开发,让人感到等待也是一种美好的事情.(什么?不够多?不够专业?给你两个网址谢谢:AA,LOGIC X)

MORE READING中附加众多截图,以及软件WELCOME界面的播放!(版权归VOX所有,转载,以及推荐) Continue reading

itunes foobar 歌词插件及ipod歌词写入

首先是MiniLyrics,因为支持ipod的歌词写入,所以强烈推荐
支持的范围几乎涵盖了所有知名的播放器
minilyrics1

minilyrics2

 

这里引用官网的ipod设备歌词写入方式:

使用 iPod 歌词下载程序在 iPod 上显示歌词

MiniLyrics 可以批量下载并且保存歌词到您的 MP3 文件中,您可以在iPod 和 iPhone 上查看。

  1. 在 MiniLyrics 窗口中,通过点击鼠标右键,切换到 iPod 歌词下载。
  2. 在 iPod 歌词下载程序中,点击菜单项‘导入 iTunes 媒体库’。
  3. 然后点击菜单 “为 iPod 下载所有歌词“. MiniLyrics 会保存所有歌词到媒体文件中.

Continue reading

Foobar2000 APE CUE ITUNES 播放与导入

以前遇到过的关于cue的问题,一直没有记录下来(点击图片查看动画)

首先是ape解码,就foobar200 v1.1.18为止,foobar2000的程序是不内置ape解码的,所以要下载插件,这个插件是official的,叫做Monkey’s Audio Decoder,截止到2012-12-24为止的版本是2.1.6(released on 2012-06-04)下载后,【旧版本是dll,之后放在foobar2000安装目录下的components文件夹中,重启即可(程序默认安装的位置是在C:Program Filesfoobar2000 于是把插件放在components中)】

新版本下载完直接安装就可以了,或者点击Files–》Preferences–》Components,然后把插件拖进去,就会安装了,之后点击确定重启。

1

之后是cue文件,大多数下载的ape,cue格式并不能在这个环境下的foorbar2000播放,这个时候就需要简单地修改cue(以记事本方式打开),其格式应为:

PERFORMER “艺术家名”
TITLE “专辑名”
FILE “文件名.ape” WAVE
TRACK 01 AUDIO
TITLE “【歌曲标题Title】in C, K279 i Allegro”
PERFORMER “【艺术家Artist】Mitsuko Uchida”
INDEX 00 00:00:00
INDEX 01 00:00:33
TRACK 02 AUDIO
TITLE “in C, K279 ii Andante”
PERFORMER “Mitsuko Uchida”
INDEX 00 04:49:03
INDEX 01 04:52:53
TRACK 03 AUDIO
TITLE “in C, K279 iii Allegro”
PERFORMER “Mitsuko Uchida”
INDEX 00 10:34:03
INDEX 01 10:36:53

这里文件名,通常下载好的ape是写CDImage,就需要改为和ape相同的名字,包括后缀.ape也是需要的。 

2

 

最后将配对的cue拖到foorbar2000播放列表就可以了。 

关于ape文件如何导入到Itunes,百度经验有很详细的过程

http://jingyan.baidu.com/article/c85b7a642d58f7003aac957b.html